  0
SECTION
  2
HEADER
  9
$ACADVER
  1
AC1009
  9
$DWGCODEPAGE
  3
ansi_1252
  9
$INSBASE
 10
0.0
 20
0.0
 30
0.0
  9
$EXTMIN
 10
-158.3707540565447
 20
-292.3575258828237
 30
-0.00000000000001
  9
$EXTMAX
 10
705.7711372402111
 20
701.1959363666151
 30
0.0
  9
$LIMMIN
 10
0.0
 20
0.0
  9
$LIMMAX
 10
12.0
 20
9.0
  9
$ORTHOMODE
 70
     0
  9
$REGENMODE
 70
     1
  9
$FILLMODE
 70
     1
  9
$QTEXTMODE
 70
     0
  9
$MIRRTEXT
 70
     0
  9
$DRAGMODE
 70
     2
  9
$LTSCALE
 40
1.0
  9
$OSMODE
 70
   183
  9
$ATTMODE
 70
     1
  9
$TEXTSIZE
 40
0.2
  9
$TRACEWID
 40
0.05
  9
$TEXTSTYLE
  7
STANDARD
  9
$CLAYER
  8
LUO-LIGHT
  9
$CELTYPE
  6
BYLAYER
  9
$CECOLOR
 62
   256
  9
$DIMSCALE
 40
1.0
  9
$DIMASZ
 40
0.18
  9
$DIMEXO
 40
0.0625
  9
$DIMDLI
 40
0.38
  9
$DIMRND
 40
0.0
  9
$DIMDLE
 40
0.0
  9
$DIMEXE
 40
0.18
  9
$DIMTP
 40
0.0
  9
$DIMTM
 40
0.0
  9
$DIMTXT
 40
0.18
  9
$DIMCEN
 40
0.09
  9
$DIMTSZ
 40
0.0
  9
$DIMTOL
 70
     0
  9
$DIMLIM
 70
     0
  9
$DIMTIH
 70
     1
  9
$DIMTOH
 70
     1
  9
$DIMSE1
 70
     0
  9
$DIMSE2
 70
     0
  9
$DIMTAD
 70
     0
  9
$DIMZIN
 70
     0
  9
$DIMBLK
  1

  9
$DIMASO
 70
     1
  9
$DIMSHO
 70
     1
  9
$DIMPOST
  1

  9
$DIMAPOST
  1

  9
$DIMALT
 70
     0
  9
$DIMALTD
 70
     2
  9
$DIMALTF
 40
25.4
  9
$DIMLFAC
 40
1.0
  9
$DIMTOFL
 70
     0
  9
$DIMTVP
 40
0.0
  9
$DIMTIX
 70
     0
  9
$DIMSOXD
 70
     0
  9
$DIMSAH
 70
     0
  9
$DIMBLK1
  1

  9
$DIMBLK2
  1

  9
$DIMSTYLE
  2
STANDARD
  9
$DIMCLRD
 70
     0
  9
$DIMCLRE
 70
     0
  9
$DIMCLRT
 70
     0
  9
$DIMTFAC
 40
1.0
  9
$DIMGAP
 40
0.09
  9
$LUNITS
 70
     2
  9
$LUPREC
 70
     4
  9
$SKETCHINC
 40
0.1
  9
$FILLETRAD
 40
0.0
  9
$AUNITS
 70
     0
  9
$AUPREC
 70
     0
  9
$MENU
  1
.
  9
$ELEVATION
 40
0.0
  9
$PELEVATION
 40
0.0
  9
$THICKNESS
 40
0.0
  9
$LIMCHECK
 70
     0
  9
$CHAMFERA
 40
0.0
  9
$CHAMFERB
 40
0.0
  9
$SKPOLY
 70
     0
  9
$TDCREATE
 40
2452643.188384271
  9
$TDUPDATE
 40
2459359.954640081
  9
$TDINDWG
 40
0.0176295602
  9
$TDUSRTIMER
 40
2458976.480563958
  9
$USRTIMER
 70
     1
  9
$ANGBASE
 50
0.0
  9
$ANGDIR
 70
     0
  9
$PDMODE
 70
     0
  9
$PDSIZE
 40
0.0
  9
$PLINEWID
 40
0.0
  9
$COORDS
 70
     2
  9
$SPLFRAME
 70
     0
  9
$SPLINETYPE
 70
     6
  9
$SPLINESEGS
 70
     8
  9
$ATTDIA
 70
     0
  9
$ATTREQ
 70
     1
  9
$HANDLING
 70
     1
  9
$HANDSEED
  5
2A1
  9
$SURFTAB1
 70
     6
  9
$SURFTAB2
 70
     6
  9
$SURFTYPE
 70
     6
  9
$SURFU
 70
     6
  9
$SURFV
 70
     6
  9
$UCSNAME
  2

  9
$UCSORG
 10
0.0
 20
0.0
 30
0.0
  9
$UCSXDIR
 10
1.0
 20
0.0
 30
0.0
  9
$UCSYDIR
 10
0.0
 20
1.0
 30
0.0
  9
$PUCSNAME
  2

  9
$PUCSORG
 10
0.0
 20
0.0
 30
0.0
  9
$PUCSXDIR
 10
1.0
 20
0.0
 30
0.0
  9
$PUCSYDIR
 10
0.0
 20
1.0
 30
0.0
  9
$USERI1
 70
     0
  9
$USERI2
 70
     0
  9
$USERI3
 70
     0
  9
$USERI4
 70
     0
  9
$USERI5
 70
     0
  9
$USERR1
 40
0.0
  9
$USERR2
 40
0.0
  9
$USERR3
 40
0.0
  9
$USERR4
 40
0.0
  9
$USERR5
 40
0.0
  9
$WORLDVIEW
 70
     1
  9
$SHADEDGE
 70
     3
  9
$SHADEDIF
 70
    70
  9
$TILEMODE
 70
     1
  9
$MAXACTVP
 70
    64
  9
$PLIMCHECK
 70
     0
  9
$PEXTMIN
 10
0.0
 20
0.0
 30
0.0
  9
$PEXTMAX
 10
0.0
 20
0.0
 30
0.0
  9
$PLIMMIN
 10
0.0
 20
0.0
  9
$PLIMMAX
 10
12.0
 20
9.0
  9
$UNITMODE
 70
     0
  9
$VISRETAIN
 70
     1
  9
$PLINEGEN
 70
     0
  9
$PSLTSCALE
 70
     1
  0
ENDSEC
  0
SECTION
  2
TABLES
  0
TABLE
  2
VPORT
 70
     1
  0
VPORT
  2
*ACTIVE
 70
     0
 10
0.0
 20
0.0
 11
1.0
 21
1.0
 12
282.6970604513838
 22
143.5581569270912
 13
0.0
 23
0.0
 14
0.5
 24
0.5
 15
0.5
 25
0.5
 16
0.0
 26
0.0
 36
1.0
 17
-27.66959356597965
 27
-19.53870295786214
 37
0.0
 40
1560.985880141208
 41
2.16
 42
50.0
 43
0.0
 44
0.0
 50
0.0
 51
0.0
 71
    16
 72
  1000
 73
     1
 74
     3
 75
     0
 76
     0
 77
     0
 78
     0
  0
ENDTAB
  0
TABLE
  2
LTYPE
 70
     2
  0
LTYPE
  2
CONTINUOUS
 70
     0
  3
Solid line
 72
    65
 73
     0
 40
0.0
  0
LTYPE
  2
DASHED2
 70
     0
  3
_ _ _ _ _ _ _ _ _ _ _ _ _ _ _ _ _ _ _ _ _ _ _ _
 72
    65
 73
     2
 40
0.375
 49
0.25
 49
-0.125
  0
ENDTAB
  0
TABLE
  2
LAYER
 70
     5
  0
LAYER
  2
0
 70
     0
 62
     7
  6
CONTINUOUS
  0
LAYER
  2
WOOD_HOLE
 70
     0
 62
   131
  6
CONTINUOUS
  0
LAYER
  2
DEFPOINTS
 70
     0
 62
     7
  6
CONTINUOUS
  0
LAYER
  2
LUO-LIGHT
 70
     0
 62
     4
  6
CONTINUOUS
  0
LAYER
  2
DIMENSIONS
 70
     0
 62
     7
  6
CONTINUOUS
  0
ENDTAB
  0
TABLE
  2
STYLE
 70
     2
  0
STYLE
  2
STANDARD
 70
     0
 40
0.0
 41
1.0
 50
0.0
 71
     0
 42
0.2
  3
arial.ttf
  4

  0
STYLE
  2
ANNOTATIVE
 70
     0
 40
0.0
 41
1.0
 50
0.0
 71
     0
 42
0.2
  3
arial.ttf
  4

  0
ENDTAB
  0
TABLE
  2
VIEW
 70
     0
  0
ENDTAB
  0
TABLE
  2
UCS
 70
     0
  0
ENDTAB
  0
TABLE
  2
APPID
 70
     8
  0
APPID
  2
ACAD
 70
     0
  0
APPID
  2
ACADANNOTATIVE
 70
     0
  0
APPID
  2
ACAECLAYERSTANDARD
 70
     0
  0
APPID
  2
ACCMTRANSPARENCY
 70
     0
  0
APPID
  2
PE_URL
 70
     0
  0
APPID
  2
PROGE_PRINT_SETTINGS
 70
     0
  0
APPID
  2
ACAD_PSEXT
 70
     0
  0
APPID
  2
ACAD_NAV_VCDISPLAY
 70
     0
  0
ENDTAB
  0
TABLE
  2
DIMSTYLE
 70
     3
  0
DIMSTYLE
  2
STANDARD
 70
     0
  3

  4

  5

  6

  7

 40
1.0
 41
0.18
 42
0.0625
 43
0.38
 44
0.18
 45
0.0
 46
0.0
 47
0.0
 48
0.0
140
0.18
141
0.09
142
0.0
143
25.4
144
1.0
145
0.0
146
1.0
147
0.09
 71
     0
 72
     0
 73
     1
 74
     1
 75
     0
 76
     0
 77
     0
 78
     0
170
     0
171
     2
172
     0
173
     0
174
     0
175
     0
176
     0
177
     0
178
     0
  0
DIMSTYLE
  2
ANNOTATIVE
 70
     0
  3

  4

  5

  6

  7

 40
0.0
 41
0.18
 42
0.0625
 43
0.38
 44
0.18
 45
0.0
 46
0.0
 47
0.0
 48
0.0
140
0.18
141
0.09
142
0.0
143
25.4
144
1.0
145
0.0
146
1.0
147
0.09
 71
     0
 72
     0
 73
     1
 74
     1
 75
     0
 76
     0
 77
     0
 78
     0
170
     0
171
     2
172
     0
173
     0
174
     0
175
     0
176
     0
177
     0
178
     0
  0
DIMSTYLE
  2
ISO-25
 70
     0
  3

  4

  5

  6

  7

 40
1.0
 41
2.5
 42
0.625
 43
5.0
 44
1.25
 45
0.0
 46
0.0
 47
0.0
 48
0.0
140
2.5
141
2.5
142
0.0
143
0.03937007874016
144
1.0
145
0.0
146
1.0
147
0.625
 71
     0
 72
     0
 73
     0
 74
     0
 75
     0
 76
     0
 77
     1
 78
     8
170
     0
171
     3
172
     1
173
     0
174
     0
175
     0
176
     0
177
     0
178
     0
  0
ENDTAB
  0
ENDSEC
  0
SECTION
  2
BLOCKS
  0
BLOCK
  8
0
  2
$MODEL_SPACE
 70
     0
 10
0.0
 20
0.0
 30
0.0
  3
$MODEL_SPACE
  1

  0
ENDBLK
  5
21
  8
0
  0
BLOCK
 67
     1
  8
0
  2
$PAPER_SPACE
 70
     0
 10
0.0
 20
0.0
 30
0.0
  3
$PAPER_SPACE
  1

  0
ENDBLK
  5
5B
 67
     1
  8
0
  0
BLOCK
  8
0
  2
*D4
 70
     1
 10
0.0
 20
0.0
 30
0.0
  3
*D4
  1

  0
LINE
  5
1AC
  8
0
 62
     0
 10
0.00002253257276
 20
616.7255641313759
 30
0.0
 11
0.00002253257276
 21
653.857936366615
 31
0.0
  0
LINE
  5
1AD
  8
0
 62
     0
 10
423.328586471157
 20
616.7255641313759
 30
0.0
 11
423.328586471157
 21
653.857936366615
 31
0.0
  0
LINE
  5
1AE
  8
0
 62
     0
 10
28.00002253257276
 20
652.607936366615
 30
0.0
 11
395.328586471157
 21
652.607936366615
 31
0.0
  0
SOLID
  5
1AF
  8
0
 62
     0
 10
28.00002253257276
 20
657.2746030332817
 30
0.0
 11
28.00002253257276
 21
647.9412696999484
 31
0.0
 12
0.00002253257276
 22
652.607936366615
 32
0.0
 13
0.00002253257276
 23
652.607936366615
 33
0.0
  0
SOLID
  5
1B0
  8
0
 62
     0
 10
395.328586471157
 20
647.9412696999484
 30
0.0
 11
395.328586471157
 21
657.2746030332817
 31
0.0
 12
423.328586471157
 22
652.607936366615
 32
0.0
 13
423.328586471157
 23
652.607936366615
 33
0.0
  0
TEXT
  5
1B1
  8
0
  6
CONTINUOUS
 62
     0
 10
179.7023045018649
 20
673.083936366615
 30
0.0
 40
28.0
  1
423
  0
POINT
  5
1B2
  8
DEFPOINTS
 62
     0
 10
0.00002253257276
 20
596.7255641313759
 30
0.0
  0
POINT
  5
1B3
  8
DEFPOINTS
 62
     0
 10
423.328586471157
 20
596.7255641313759
 30
0.0
  0
POINT
  5
1B4
  8
DEFPOINTS
 62
     0
 10
423.328586471157
 20
652.607936366615
 30
0.0
  0
ENDBLK
  5
1AB
  8
0
  0
BLOCK
  8
0
  2
*D6
 70
     1
 10
0.0
 20
0.0
 30
0.0
  3
*D6
  1

  0
LINE
  5
1D0
  8
0
 62
     0
 10
-73.9003818213057
 20
95.52152846424633
 30
0.0
 11
-111.0327540565447
 21
95.52152846424633
 31
0.0
  0
LINE
  5
1D1
  8
0
 62
     0
 10
-73.90038182130559
 20
544.8501149353898
 30
0.0
 11
-111.0327540565448
 21
544.8501149353898
 31
0.0
  0
LINE
  5
1D2
  8
0
 62
     0
 10
-109.7827540565447
 20
123.5215284642463
 30
0.0
 11
-109.7827540565448
 21
516.8501149353898
 31
0.0
  0
SOLID
  5
1D3
  8
0
 62
     0
 10
-114.4494207232114
 20
123.5215284642463
 30
0.0
 11
-105.1160873898781
 21
123.5215284642463
 31
0.0
 12
-109.7827540565447
 22
95.52152846424633
 32
0.0
 13
-109.7827540565447
 23
95.52152846424633
 33
0.0
  0
SOLID
  5
1D4
  8
0
 62
     0
 10
-105.1160873898781
 20
516.8501149353898
 30
0.0
 11
-114.4494207232114
 21
516.8501149353898
 31
0.0
 12
-109.7827540565448
 22
544.8501149353898
 32
0.0
 13
-109.7827540565448
 23
544.8501149353898
 33
0.0
  0
TEXT
  5
1D5
  8
0
  6
CONTINUOUS
 62
     0
 10
-130.2587540565447
 20
288.1958216998181
 30
0.0
 40
28.0
  1
449
 50
90.00000000000001
  0
POINT
  5
1D6
  8
DEFPOINTS
 62
     0
 10
-53.9003818213057
 20
95.52152846424633
 30
0.0
  0
POINT
  5
1D7
  8
DEFPOINTS
 62
     0
 10
-53.90038182130559
 20
544.8501149353898
 30
0.0
  0
POINT
  5
1D8
  8
DEFPOINTS
 62
     0
 10
-109.7827540565448
 20
544.8501149353898
 30
0.0
  0
ENDBLK
  5
1CF
  8
0
  0
BLOCK
  8
0
  2
*D7
 70
     1
 10
0.0
 20
0.0
 30
0.0
  3
*D7
  1

  0
LINE
  5
1DD
  8
0
 62
     0
 10
509.6471372400997
 20
616.7255641313759
 30
0.0
 11
509.6471372400997
 21
653.857936366615
 31
0.0
  0
LINE
  5
1DE
  8
0
 62
     0
 10
569.6471372402111
 20
616.7255641313759
 30
0.0
 11
569.6471372402111
 21
653.857936366615
 31
0.0
  0
LINE
  5
1DF
  8
0
 62
     0
 10
597.6471372402111
 20
652.607936366615
 30
0.0
 11
705.7711372402111
 21
652.607936366615
 31
0.0
  0
LINE
  5
1E0
  8
0
 62
     0
 10
509.6471372400997
 20
652.607936366615
 30
0.0
 11
569.6471372402111
 21
652.607936366615
 31
0.0
  0
LINE
  5
1E1
  8
0
 62
     0
 10
481.6471372400997
 20
652.607936366615
 30
0.0
 11
453.6471372400997
 21
652.607936366615
 31
0.0
  0
SOLID
  5
1E2
  8
0
 62
     0
 10
481.6471372400997
 20
647.9412696999484
 30
0.0
 11
481.6471372400997
 21
657.2746030332817
 31
0.0
 12
509.6471372400997
 22
652.607936366615
 32
0.0
 13
509.6471372400997
 23
652.607936366615
 33
0.0
  0
SOLID
  5
1E3
  8
0
 62
     0
 10
597.6471372402111
 20
657.2746030332817
 30
0.0
 11
597.6471372402111
 21
647.9412696999484
 31
0.0
 12
569.6471372402111
 22
652.607936366615
 32
0.0
 13
569.6471372402111
 23
652.607936366615
 33
0.0
  0
TEXT
  5
1E4
  8
0
  6
CONTINUOUS
 62
     0
 10
644.1911372402111
 20
673.083936366615
 30
0.0
 40
28.0
  1
60
  0
POINT
  5
1E5
  8
DEFPOINTS
 62
     0
 10
509.6471372400997
 20
596.7255641313759
 30
0.0
  0
POINT
  5
1E6
  8
DEFPOINTS
 62
     0
 10
569.6471372402111
 20
596.7255641313759
 30
0.0
  0
POINT
  5
1E7
  8
DEFPOINTS
 62
     0
 10
569.6471372402111
 20
652.607936366615
 30
0.0
  0
ENDBLK
  5
1DC
  8
0
  0
BLOCK
  8
0
  2
LUOLIGHT_TABLE_SIDE
 70
     0
 10
0.0
 20
0.0
 30
0.0
  3
LUOLIGHT_TABLE_SIDE
  1

  0
POLYLINE
  5
1E9
  8
LUO-LIGHT
 66
     1
 10
0.0
 20
0.0
 30
0.0
  0
VERTEX
  5
227
  8
LUO-LIGHT
 10
16.00000000005343
 20
26.0
 30
0.0
  0
VERTEX
  5
228
  8
LUO-LIGHT
 10
16.00000000005343
 20
449.3285864711435
 30
0.0
  0
VERTEX
  5
229
  8
LUO-LIGHT
 10
-9.29999999994629
 20
449.3285864711435
 30
0.0
  0
VERTEX
  5
22A
  8
LUO-LIGHT
 10
-9.29999999994629
 20
26.0
 30
0.0
  0
SEQEND
  5
28F
  8
LUO-LIGHT
  0
POLYLINE
  5
1EA
  8
LUO-LIGHT
 66
     1
 10
0.0
 20
0.0
 30
0.0
  0
VERTEX
  5
22B
  8
LUO-LIGHT
 10
0.00000000005298
 20
26.0
 30
0.0
  0
VERTEX
  5
22C
  8
LUO-LIGHT
 10
0.00000000005298
 20
449.3285864711976
 30
0.0
  0
SEQEND
  5
290
  8
LUO-LIGHT
  0
POLYLINE
  5
1EB
  8
LUO-LIGHT
 66
     1
 10
0.0
 20
0.0
 30
0.0
  0
VERTEX
  5
22D
  8
LUO-LIGHT
 10
-1.29999999994629
 20
26.0
 30
0.0
  0
VERTEX
  5
22E
  8
LUO-LIGHT
 10
-1.29999999994629
 20
449.3285864711435
 30
0.0
  0
SEQEND
  5
291
  8
LUO-LIGHT
  0
POLYLINE
  5
1EC
  8
LUO-LIGHT
 66
     1
 10
0.0
 20
0.0
 30
0.0
 70
     1
1001
PE_URL
1000

  0
VERTEX
  5
22F
  8
LUO-LIGHT
 10
-30.00000000005343
 20
2.0
 30
0.0
  0
VERTEX
  5
230
  8
LUO-LIGHT
 10
-30.00000000005343
 20
24.0
 30
0.0
 42
-0.4142135623731
  0
VERTEX
  5
231
  8
LUO-LIGHT
 10
-28.00000000005389
 20
26.0
 30
0.0
  0
VERTEX
  5
232
  8
LUO-LIGHT
 10
28.00000000005389
 20
26.0
 30
0.0
 42
-0.4142135623731
  0
VERTEX
  5
233
  8
LUO-LIGHT
 10
30.00000000005343
 20
24.0
 30
0.0
  0
VERTEX
  5
234
  8
LUO-LIGHT
 10
30.00000000005343
 20
2.0
 30
0.0
 42
-0.4142135623731
  0
VERTEX
  5
235
  8
LUO-LIGHT
 10
28.00000000005389
 20
0.0
 30
0.0
  0
VERTEX
  5
236
  8
LUO-LIGHT
 10
-28.00000000005389
 20
0.0
 30
0.0
 42
-0.4142135623731
  0
SEQEND
  5
292
  8
LUO-LIGHT
  0
POLYLINE
  5
1ED
  8
LUO-LIGHT
 66
     1
 10
0.0
 20
0.0
 30
0.0
 70
     1
1001
PE_URL
1000

  0
VERTEX
  5
237
  8
LUO-LIGHT
 10
-0.74999999994611
 20
20.0
 30
0.0
  0
VERTEX
  5
238
  8
LUO-LIGHT
 10
0.75000000005389
 20
20.0
 30
0.0
 42
-0.4142135623731
  0
VERTEX
  5
239
  8
LUO-LIGHT
 10
3.75000000005389
 20
17.0
 30
0.0
 42
-0.4142135623731
  0
VERTEX
  5
23A
  8
LUO-LIGHT
 10
0.75000000005389
 20
14.0
 30
0.0
  0
VERTEX
  5
23B
  8
LUO-LIGHT
 10
-0.74999999994611
 20
14.0
 30
0.0
 42
-0.4142135623731
  0
VERTEX
  5
23C
  8
LUO-LIGHT
 10
-3.74999999994611
 20
17.0
 30
0.0
 42
-0.4142135623731
  0
SEQEND
  5
293
  8
LUO-LIGHT
  0
ENDBLK
  5
1F0
  8
0
  0
BLOCK
  8
0
  2
LUOLIGHT_TABLE_FRONT
 70
     0
 10
0.0
 20
0.0
 30
0.0
  3
LUOLIGHT_TABLE_FRONT
  1

  0
POLYLINE
  5
1F2
  8
LUO-LIGHT
 66
     1
 10
0.0
 20
0.0
 30
0.0
 70
     1
1001
PE_URL
1000

  0
VERTEX
  5
23D
  8
LUO-LIGHT
 10
-211.664281969292
 20
1.99999999999977
 30
0.0
  0
VERTEX
  5
23E
  8
LUO-LIGHT
 10
-211.664281969292
 20
23.99999999999113
 30
0.0
 42
-0.4142135623731
  0
VERTEX
  5
23F
  8
LUO-LIGHT
 10
-209.6642819692922
 20
25.99999999999091
 30
0.0
  0
VERTEX
  5
240
  8
LUO-LIGHT
 10
209.6642819692922
 20
25.99999999999091
 30
0.0
 42
-0.4142135623731
  0
VERTEX
  5
241
  8
LUO-LIGHT
 10
211.6642819692922
 20
23.99999999999113
 30
0.0
  0
VERTEX
  5
242
  8
LUO-LIGHT
 10
211.6642819692922
 20
1.99999999999977
 30
0.0
 42
-0.4142135623731
  0
VERTEX
  5
243
  8
LUO-LIGHT
 10
209.6642819692922
 20
0.0
 30
0.0
  0
VERTEX
  5
244
  8
LUO-LIGHT
 10
-209.6642819692922
 20
0.0
 30
0.0
 42
-0.4142135623731
  0
SEQEND
  5
294
  8
LUO-LIGHT
  0
POLYLINE
  5
1F3
  8
LUO-LIGHT
 66
     1
 10
0.0
 20
0.0
 30
0.0
  0
VERTEX
  5
245
  8
LUO-LIGHT
 10
-87.6775887330125
 20
325.3418707022984
 30
0.0
 42
0.19767899097095
  0
VERTEX
  5
246
  8
LUO-LIGHT
 10
-211.664281969292
 20
28.00949367086514
 30
0.0
 42
0.4156045679103
  0
VERTEX
  5
247
  8
LUO-LIGHT
 10
-209.664304501865
 20
25.99999999999091
 30
0.0
  0
VERTEX
  5
248
  8
LUO-LIGHT
 10
-153.6635768704764
 20
25.99999999999091
 30
0.0
 42
0.41261103180899
  0
VERTEX
  5
249
  8
LUO-LIGHT
 10
-151.6636068403313
 20
27.98905109487782
 30
0.0
 42
-0.19748998274444
  0
VERTEX
  5
24A
  8
LUO-LIGHT
 10
-45.25118186182704
 20
282.9154638311043
 30
0.0
 42
-0.19748998274444
  0
VERTEX
  5
24B
  8
LUO-LIGHT
 10
209.6752308743996
 20
389.3278888096092
 30
0.0
 42
0.41261103180899
  0
VERTEX
  5
24C
  8
LUO-LIGHT
 10
211.6642819692868
 20
391.3278588397543
 30
0.0
  0
VERTEX
  5
24D
  8
LUO-LIGHT
 10
211.6642819692868
 20
447.3285864711427
 30
0.0
 42
0.4156045679103
  0
VERTEX
  5
24E
  8
LUO-LIGHT
 10
209.654788298413
 20
449.3285639385699
 30
0.0
 42
0.19767899097095
  0
VERTEX
  5
24F
  8
LUO-LIGHT
 10
-87.67758873302068
 20
325.3418707022904
 30
0.0
  0
SEQEND
  5
295
  8
LUO-LIGHT
  0
ENDBLK
  5
1F6
  8
0
  0
BLOCK
  8
0
  2
LUOLIGHT_TABLE_TOP
 70
     0
 10
0.0
 20
0.0
 30
0.0
  3
LUOLIGHT_TABLE_TOP
  1

  0
POLYLINE
  5
1F8
  8
LUO-LIGHT
 66
     1
 10
0.0
 20
0.0
 30
0.0
1001
PE_URL
1000

  0
VERTEX
  5
250
  8
LUO-LIGHT
 10
193.8500000000117
 20
-3.09999999999399
 30
0.0
  0
VERTEX
  5
251
  8
LUO-LIGHT
 10
193.8500000000117
 20
-4.39999999999406
 30
0.0
  0
SEQEND
  5
296
  8
LUO-LIGHT
  0
POLYLINE
  5
1F9
  8
LUO-LIGHT
 66
     1
 10
0.0
 20
0.0
 30
0.0
 70
     1
1001
PE_URL
1000

  0
VERTEX
  5
252
  8
LUO-LIGHT
 10
-205.8278888095813
 20
16.64999999995384
 30
0.0
  0
VERTEX
  5
253
  8
LUO-LIGHT
 10
-205.8278888095813
 20
16.64999999995384
 30
0.0
 42
-0.4142135623731
  0
VERTEX
  5
254
  8
LUO-LIGHT
 10
-202.0778888095813
 20
20.39999999995384
 30
0.0
  0
VERTEX
  5
255
  8
LUO-LIGHT
 10
-191.5778888095813
 20
20.39999999995339
 30
0.0
 42
-0.4142135623731
  0
VERTEX
  5
256
  8
LUO-LIGHT
 10
-187.8278888095813
 20
16.64999999995339
 30
0.0
  0
VERTEX
  5
257
  8
LUO-LIGHT
 10
-187.8278888095813
 20
16.64999999995339
 30
0.0
 42
-0.4142135623731
  0
VERTEX
  5
258
  8
LUO-LIGHT
 10
-191.5778888095813
 20
12.89999999995339
 30
0.0
  0
VERTEX
  5
259
  8
LUO-LIGHT
 10
-202.0778888095813
 20
12.89999999995384
 30
0.0
 42
-0.4142135623731
  0
SEQEND
  5
297
  8
LUO-LIGHT
  0
POLYLINE
  5
1FA
  8
LUO-LIGHT
 66
     1
 10
0.0
 20
0.0
 30
0.0
1001
PE_URL
1000

  0
VERTEX
  5
25A
  8
LUO-LIGHT
 10
-226.8278888096354
 20
-3.09999999999405
 30
0.0
  0
VERTEX
  5
25B
  8
LUO-LIGHT
 10
-226.8278888096352
 20
-3.09999999999406
 30
0.0
  0
VERTEX
  5
25C
  8
LUO-LIGHT
 10
-226.8278888096354
 20
-3.09999999999405
 30
0.0
  0
VERTEX
  5
25D
  8
LUO-LIGHT
 10
-226.8278888096356
 20
10.90000000000628
 30
0.0
 42
-0.41421356237309
  0
VERTEX
  5
25E
  8
LUO-LIGHT
 10
-224.8278888096359
 20
12.90000000000619
 30
0.0
  0
VERTEX
  5
25F
  8
LUO-LIGHT
 10
-224.8278888096359
 20
12.90000000000619
 30
0.0
  0
SEQEND
  5
298
  8
LUO-LIGHT
  0
POLYLINE
  5
1FB
  8
LUO-LIGHT
  6
DASHED2
 66
     1
 10
0.0
 20
0.0
 30
0.0
1001
PE_URL
1000

  0
VERTEX
  5
260
  8
LUO-LIGHT
  6
DASHED2
 10
-166.8278888095278
 20
-3.09999999999378
 30
0.0
  0
VERTEX
  5
261
  8
LUO-LIGHT
  6
DASHED2
 10
-166.8278888095281
 20
-3.09999999999379
 30
0.0
  0
VERTEX
  5
262
  8
LUO-LIGHT
  6
DASHED2
 10
-166.8278888095278
 20
-3.09999999999378
 30
0.0
  0
VERTEX
  5
263
  8
LUO-LIGHT
  6
DASHED2
 10
-166.8278888095276
 20
10.90000000000651
 30
0.0
 42
0.41421356237309
  0
VERTEX
  5
264
  8
LUO-LIGHT
  6
DASHED2
 10
-168.8278888095274
 20
12.90000000000642
 30
0.0
  0
VERTEX
  5
265
  8
LUO-LIGHT
  6
DASHED2
 10
-168.8278888095274
 20
12.90000000000642
 30
0.0
  0
SEQEND
  5
299
  8
LUO-LIGHT
  6
DASHED2
  0
CIRCLE
  5
1FC
  8
LUO-LIGHT
  6
DASHED2
 10
-179.3278888095747
 20
3.90000000000648
 30
0.0
 40
2.0
1001
PE_URL
1000

  0
CIRCLE
  5
1FD
  8
LUO-LIGHT
  6
DASHED2
 10
-214.3278888095876
 20
3.90000000000648
 30
0.0
 40
2.0
1001
PE_URL
1000

  0
POLYLINE
  5
1FE
  8
LUO-LIGHT
 66
     1
 10
0.0
 20
0.0
 30
0.0
1001
PE_URL
1000

  0
VERTEX
  5
266
  8
LUO-LIGHT
 10
-224.1778888096237
 20
-3.09999999999324
 30
0.0
  0
VERTEX
  5
267
  8
LUO-LIGHT
 10
-224.1778888096237
 20
-4.39999999999331
 30
0.0
  0
SEQEND
  5
29A
  8
LUO-LIGHT
  0
POLYLINE
  5
1FF
  8
LUO-LIGHT
 66
     1
 10
0.0
 20
0.0
 30
0.0
1001
PE_URL
1000

  0
VERTEX
  5
268
  8
LUO-LIGHT
 10
-225.3278888095815
 20
-12.39999999999331
 30
0.0
  0
VERTEX
  5
269
  8
LUO-LIGHT
 10
-225.3278888095815
 20
-12.39999999999331
 30
0.0
 42
-0.4142135623731
  0
VERTEX
  5
26A
  8
LUO-LIGHT
 10
-226.8278888095815
 20
-10.89999999999331
 30
0.0
  0
VERTEX
  5
26B
  8
LUO-LIGHT
 10
-226.8278888095815
 20
-4.39999999999331
 30
0.0
  0
VERTEX
  5
26C
  8
LUO-LIGHT
 10
-196.8278888095813
 20
-4.39999999999331
 30
0.0
  0
SEQEND
  5
29B
  8
LUO-LIGHT
  0
POLYLINE
  5
200
  8
LUO-LIGHT
 66
     1
 10
0.0
 20
0.0
 30
0.0
1001
PE_URL
1000

  0
VERTEX
  5
26D
  8
LUO-LIGHT
 10
-226.8278888096354
 20
-3.09999999999405
 30
0.0
  0
VERTEX
  5
26E
  8
LUO-LIGHT
 10
196.5000000000227
 20
-3.09999999999405
 30
0.0
  0
SEQEND
  5
29C
  8
LUO-LIGHT
  0
POLYLINE
  5
201
  8
LUO-LIGHT
 66
     1
 10
0.0
 20
0.0
 30
0.0
1001
PE_URL
1000

  0
VERTEX
  5
26F
  8
LUO-LIGHT
 10
-226.8278888095815
 20
-4.39999999999331
 30
0.0
  0
VERTEX
  5
270
  8
LUO-LIGHT
 10
196.5000000000232
 20
-4.40000000000092
 30
0.0
  0
SEQEND
  5
29D
  8
LUO-LIGHT
  0
POLYLINE
  5
202
  8
LUO-LIGHT
 66
     1
 10
0.0
 20
0.0
 30
0.0
1001
PE_URL
1000

  0
VERTEX
  5
271
  8
LUO-LIGHT
 10
-225.3278888095815
 20
-12.39999999999331
 30
0.0
  0
VERTEX
  5
272
  8
LUO-LIGHT
 10
195.0000000000232
 20
-12.39999999999971
 30
0.0
 42
0.41421356237309
  0
VERTEX
  5
273
  8
LUO-LIGHT
 10
196.5000000000232
 20
-10.89999999999974
 30
0.0
  0
VERTEX
  5
274
  8
LUO-LIGHT
 10
196.5000000000236
 20
10.89999999999974
 30
0.0
 42
0.4142135623731
  0
VERTEX
  5
275
  8
LUO-LIGHT
 10
194.5000000000236
 20
12.89999999999977
 30
0.0
  0
VERTEX
  5
276
  8
LUO-LIGHT
 10
-224.8278888096359
 20
12.90000000000619
 30
0.0
  0
SEQEND
  5
29E
  8
LUO-LIGHT
  0
POLYLINE
  5
203
  8
LUO-LIGHT
 66
     1
 10
0.0
 20
0.0
 30
0.0
1001
PE_URL
1000

  0
VERTEX
  5
277
  8
LUO-LIGHT
 10
196.5000000000232
 20
-2.94999999999391
 30
0.0
  0
VERTEX
  5
278
  8
LUO-LIGHT
 10
196.5000000000227
 20
-30.94999999999394
 30
0.0
 42
-0.41421356237312
  0
VERTEX
  5
279
  8
LUO-LIGHT
 10
194.5000000000227
 20
-32.94999999999394
 30
0.0
  0
VERTEX
  5
27A
  8
LUO-LIGHT
 10
0.0
 20
-32.94999999999371
 30
0.0
  0
VERTEX
  5
27B
  8
LUO-LIGHT
 10
-224.828563938561
 20
-32.94999999999337
 30
0.0
 42
-0.41421356237312
  0
VERTEX
  5
27C
  8
LUO-LIGHT
 10
-226.828563938561
 20
-30.94999999999337
 30
0.0
  0
VERTEX
  5
27D
  8
LUO-LIGHT
 10
-226.828563938561
 20
-2.9499999999934
 30
0.0
  0
SEQEND
  5
29F
  8
LUO-LIGHT
  0
POLYLINE
  5
204
  8
LUO-LIGHT
 66
     1
 10
0.0
 20
0.0
 30
0.0
  0
VERTEX
  5
27E
  8
LUO-LIGHT
 10
196.5000000000227
 20
-2.94999999999349
 30
0.0
  0
VERTEX
  5
27F
  8
LUO-LIGHT
 10
196.5000000000227
 20
25.05000000000651
 30
0.0
 42
0.41421356237312
  0
VERTEX
  5
280
  8
LUO-LIGHT
 10
194.5000000000227
 20
27.05000000000651
 30
0.0
  0
VERTEX
  5
281
  8
LUO-LIGHT
 10
0.0
 20
27.0500000000064
 30
0.0
  0
VERTEX
  5
282
  8
LUO-LIGHT
 10
-224.828563938561
 20
27.05000000000617
 30
0.0
 42
0.41421356237312
  0
VERTEX
  5
283
  8
LUO-LIGHT
 10
-226.828563938561
 20
25.05000000000617
 30
0.0
  0
VERTEX
  5
284
  8
LUO-LIGHT
 10
-226.828563938561
 20
-2.94999999999383
 30
0.0
  0
SEQEND
  5
2A0
  8
LUO-LIGHT
  0
ENDBLK
  5
207
  8
0
  0
BLOCK
  8
0
  2
*X11
 70
     1
 10
0.0
 20
0.0
 30
0.0
  3
*X11
  1

  0
TEXT
  5
21A
  8
DIMENSIONS
  6
CONTINUOUS
 10
-4.68197642512564
 20
-249.4157816759544
 30
0.0
 40
18.9776
  1
LUO-light
  0
TEXT
  5
21B
  8
DIMENSIONS
  6
CONTINUOUS
 10
-3.20172362512564
 20
-281.0451150092878
 30
0.0
 40
18.9776
  1
table version
  0
ENDBLK
  5
286
  8
0
  0
BLOCK
  8
0
  2
*X12
 70
     1
 10
0.0
 20
0.0
 30
0.0
  3
*X12
  1

  0
TEXT
  5
21D
  8
DIMENSIONS
  6
CONTINUOUS
 10
450.5504603674308
 20
-191.7121334209305
 30
-0.00000000000001
 40
12.6519
  1
VERS:
  0
TEXT
  5
21E
  8
DIMENSIONS
  6
CONTINUOUS
 10
450.4618970674308
 20
-213.0137157209305
 30
-0.00000000000001
 40
12.6519
  1
final
  0
ENDBLK
  5
288
  8
0
  0
BLOCK
  8
0
  2
*X13
 70
     1
 10
0.0
 20
0.0
 30
0.0
  3
*X13
  1

  0
TEXT
  5
220
  8
DIMENSIONS
  6
CONTINUOUS
 10
-4.03674482512564
 20
-169.0527484358094
 30
0.0
 40
12.6518
  1
LUO-light.com
  0
TEXT
  5
221
  8
DIMENSIONS
  6
CONTINUOUS
 10
-3.92287862512564
 20
-190.3541623691427
 30
0.0
 40
12.6518
  1
info@luo-light.com
  0
TEXT
  5
222
  8
DIMENSIONS
  6
CONTINUOUS
 10
-3.16377062512564
 20
-211.4911029024761
 30
0.0
 40
12.6518
  1
Tel +358 503789468
  0
ENDBLK
  5
28A
  8
0
  0
ENDSEC
  0
SECTION
  2
ENTITIES
  0
POLYLINE
  5
19C
  8
DIMENSIONS
 66
     1
 10
0.0
 20
0.0
 30
0.0
 70
     1
  0
VERTEX
  5
211
  8
DIMENSIONS
 10
-16.06732927856274
 20
-225.6014092937144
 30
0.0
  0
VERTEX
  5
212
  8
DIMENSIONS
 10
528.1144861909613
 20
-225.6014092937144
 30
0.0
  0
VERTEX
  5
213
  8
DIMENSIONS
 10
528.1144861909613
 20
-292.3575258828237
 30
0.0
  0
VERTEX
  5
214
  8
DIMENSIONS
 10
-16.06732927856274
 20
-292.3575258828237
 30
0.0
  0
SEQEND
  5
28B
  8
DIMENSIONS
  0
POLYLINE
  5
19D
  8
DIMENSIONS
 66
     1
 10
0.0
 20
0.0
 30
0.0
 70
     1
  0
VERTEX
  5
215
  8
DIMENSIONS
 10
-16.06732927856274
 20
-148.6083394454936
 30
0.0
  0
VERTEX
  5
216
  8
DIMENSIONS
 10
528.1144861909613
 20
-148.6083394454936
 30
0.0
  0
VERTEX
  5
217
  8
DIMENSIONS
 10
528.1144861909613
 20
-225.6014092937144
 30
0.0
  0
VERTEX
  5
218
  8
DIMENSIONS
 10
-16.06732927856274
 20
-225.6014092937144
 30
0.0
  0
SEQEND
  5
28C
  8
DIMENSIONS
  0
INSERT
  5
19E
  8
DIMENSIONS
  2
*X11
 10
0.0
 20
0.0
 30
0.0
  0
TEXT
  5
19F
  8
DIMENSIONS
  6
CONTINUOUS
 10
346.0721507025937
 20
-177.0463822101556
 30
-0.00000000000001
 40
12.6519
  1
24.05.2021
  0
INSERT
  5
1A0
  8
DIMENSIONS
  2
*X12
 10
0.0
 20
0.0
 30
0.0
  0
LINE
  5
1A1
  8
DIMENSIONS
 10
329.3715324376933
 20
-186.1241531284768
 30
0.0
 11
442.6769327882209
 21
-186.1241531284768
 31
0.0
  0
INSERT
  5
1A2
  8
DIMENSIONS
  2
*X13
 10
0.0
 20
0.0
 30
0.0
  0
LINE
  5
1A3
  8
DIMENSIONS
 10
329.3715324376933
 20
-225.6014092937144
 30
0.0
 11
329.3715324376933
 21
-148.6083394454936
 31
0.0
  0
TEXT
  5
1A4
  8
DIMENSIONS
  6
CONTINUOUS
 10
336.8791925495596
 20
-208.6748731367883
 30
0.0
 40
12.65176037314196
  1
(units in mm)
  0
LINE
  5
1A5
  8
DIMENSIONS
 10
442.6769327882209
 20
-225.6014092937144
 30
0.0
 11
442.6769327882209
 21
-148.6083394454936
 31
0.0
  0
POLYLINE
  5
1A6
  8
DIMENSIONS
 66
     1
 10
0.0
 20
0.0
 30
0.0
  0
VERTEX
  5
223
  8
DIMENSIONS
 10
417.4895408003156
 20
-238.196318648751
 30
0.0
  0
VERTEX
  5
224
  8
DIMENSIONS
 10
417.4895408003156
 20
-206.2348761664953
 30
0.0
  0
SEQEND
  5
28D
  8
DIMENSIONS
  0
POLYLINE
  5
1A7
  8
DIMENSIONS
 66
     1
 10
0.0
 20
0.0
 30
0.0
  0
VERTEX
  5
225
  8
DIMENSIONS
 10
402.4895408003156
 20
-223.196318648751
 30
0.0
  0
VERTEX
  5
226
  8
DIMENSIONS
 10
432.4895408003156
 20
-223.196318648751
 30
0.0
  0
SEQEND
  5
28E
  8
DIMENSIONS
  0
DIMENSION
  5
1A8
  8
0
 62
     7
  2
*D4
 10
423.328586471157
 20
652.607936366615
 30
0.0
 11
211.6643045018649
 21
686.901936366615
 31
0.0
 70
    32
  3
ISO-25
 13
0.00002253257276
 23
596.7255641313759
 33
0.0
 14
423.328586471157
 24
596.7255641313759
 34
0.0
 50
-180.0
 52
270.0
1001
ACAD
1000
DSTYLE
1002
{
1070
   287
1070
     2
1070
   271
1070
     0
1070
   140
1040
28.0
1070
   147
1040
20.0
1070
    42
1040
20.0
1070
   289
1070
     2
1070
    41
1040
28.0
1002
}
  0
DIMENSION
  5
1CC
  8
0
 62
     7
  2
*D6
 10
-109.7827540565448
 20
544.8501149353898
 30
0.0
 11
-144.0767540565448
 21
320.1858216998181
 31
0.0
 70
    32
  3
ISO-25
 13
-53.9003818213057
 23
95.52152846424633
 33
0.0
 14
-53.90038182130559
 24
544.8501149353898
 34
0.0
 50
-90.0
 52
270.0
1001
ACAD
1000
DSTYLE
1002
{
1070
   287
1070
     2
1070
    41
1040
28.0
1070
   289
1070
     2
1070
   271
1070
     0
1070
    42
1040
20.0
1070
   147
1040
20.0
1070
   140
1040
28.0
1002
}
1001
PE_URL
1000

  0
DIMENSION
  5
1D9
  8
0
 62
     7
  2
*D7
 10
569.6471372402111
 20
652.607936366615
 30
0.0
 11
665.7091372402111
 21
686.901936366615
 31
0.0
 70
    32
  3
ISO-25
 13
509.6471372400997
 23
596.7255641313759
 33
0.0
 14
569.6471372402111
 24
596.7255641313759
 34
0.0
 50
-180.0
 52
270.0
1001
ACAD
1000
DSTYLE
1002
{
1070
   287
1070
     2
1070
   271
1070
     0
1070
   140
1040
28.0
1070
   147
1040
20.0
1070
    42
1040
20.0
1070
   289
1070
     2
1070
    41
1040
28.0
1002
}
  0
INSERT
  5
1EE
  8
LUO-LIGHT
  2
LUOLIGHT_TABLE_SIDE
 10
539.6471372401531
 20
95.52152846424633
 30
0.0
  0
INSERT
  5
1F4
  8
LUO-LIGHT
  2
LUOLIGHT_TABLE_FRONT
 10
211.6643045018657
 20
95.52152846424633
 30
0.0
  0
INSERT
  5
205
  8
LUO-LIGHT
  2
LUOLIGHT_TABLE_TOP
 10
226.8285864711347
 20
32.94999999999397
 30
0.0
  0
ENDSEC
  0
EOF
